#TITLE:Follow Me;
#SUBTITLE:Expi3nze;
#ARTIST:2NE1;
#TITLETRANSLIT:;
#SUBTITLETRANSLIT:;
#ARTISTTRANSLIT:;
#CREDIT:;
#BANNER:bn.png;
#BACKGROUND:bg.png;
#LYRICSPATH:;
#CDTITLE:;
#MUSIC:Follow Me.mp3;
#OFFSET:-0.020;
#SAMPLESTART:100.000;
#SAMPLELENGTH:12.000;
#SELECTABLE:YES;
#BPMS:0.000=180.000,12.000=360.000,20.000=180.000,48.000=360.000,49.000=360.049,50.000=360.000,56.000=180.000,68.000=360.000,76.000=180.000,88.000=360.000,96.000=180.000,108.000=360.000,116.000=180.000,128.000=360.000,136.000=180.000,148.000=360.000,156.000=180.000,168.000=360.000,176.000=180.000,204.000=360.000,212.000=180.000,240.000=360.000,248.000=180.000,260.000=360.000,268.000=180.000,280.000=360.000,288.000=180.000,300.000=360.000,308.000=180.000,392.000=360.000,400.000=180.000,412.000=360.000,420.000=180.000,432.000=360.000,440.000=180.000;
#STOPS:;
#BGCHANGES:;
// cache tags:
#FIRSTBEAT:0.000;
#LASTBEAT:455.250;
#SONGFILENAME:Songs/SDO pack 3/Follow Me/Follow Me.sm;
#HASMUSIC:1;
#HASBANNER:1;
#MUSICLENGTH:135.183;
// end cache tags

//---------------dance-single - ----------------
#NOTES:
     dance-single:
     :
     Hard:
     19:
     1.000,1.000,1.000,1.000,0.178,631.000,170.000,277.000,0.000,84.000:
0220
0000
0000
0330
0010
0000
1000
0000
0000
0000
0010
0000
1000
0000
0000
0000
,
0220
0000
0000
0330
0100
0000
0001
0000
0000
0000
1000
0000
0010
0000
0000
0000
,
2002
0000
0000
3003
0010
0000
1000
0000
0000
0000
0001
0000
0100
0000
0000
0000
,
0002
0000
2003
0100
,
3020
1000
2030
0010
,
3022
0000
0000
0033
1000
0000
0010
0000
0000
0000
1000
0000
0001
0000
0100
0000
,
0110
0000
0001
0100
0000
0001
0100
0001
,
0220
0000
0000
0330
0001
0000
0100
0000
0000
0000
1000
0000
0001
0000
0000
0000
,
0200
0000
0000
0000
0000
0000
0001
0001
0001
0010
0001
0000
0010
0001
0000
0001
,
2301
0000
0000
3000
0020
0000
1230
0000
0300
0000
0002
0000
2013
0000
3000
0000
,
0020
0000
0100
0030
2000
0000
3210
0000
0300
0001
2000
0000
3012
0000
1003
0001
,
0200
0000
0000
0300
0002
0000
0213
0000
0300
0000
0020
0000
2031
0000
3000
0000
,
0200
0000
0000
0000
0320
0000
0001
0100
,
2030
0000
0001
0100
3002
0000
1000
0010
,
2003
0000
0000
3000
0020
0000
1230
0000
0300
0000
0002
0000
2013
0000
3000
0000
,
0020
0000
0100
0031
2000
0000
3210
0000
0300
0001
2000
0000
3012
0000
0103
0001
,
0200
0000
0000
0300
0002
0000
0213
0000
0300
0000
0020
0000
2031
0000
3000
0000
,
0020
0000
0000
0000
0230
0000
1000
0010
,
0302
0000
1000
0010
0203
0000
1000
0001
,
2301
0000
0000
3000
0020
0000
1230
0000
0300
0000
0002
0000
2013
0000
3000
0000
,
0020
0000
0100
0031
2000
0000
3210
0000
0300
0001
2000
0000
3012
0000
0103
0001
,
0200
0000
0000
0300
0002
0000
0213
0000
0300
0000
0020
0000
2031
0000
3000
0000
,
0200
0000
0000
0000
0320
0000
0001
0100
,
2030
0000
0001
0100
3002
0000
1000
0010
,
2003
0000
0000
3000
0020
0000
1230
0000
0300
0000
0002
0000
2013
0000
3000
0000
,
0020
0000
0100
0031
2000
0000
3210
0000
0300
0001
2000
0000
3012
0000
0103
0001
,
0200
0000
0000
0300
0002
0000
0213
0000
0300
0000
0020
0000
2031
0000
3000
0000
,
0200
0000
0000
0000
0320
0000
0001
0100
,
2030
0000
0001
0100
3002
0000
1000
0010
,
1003
0000
0010
0110
0000
0001
1100
0000
,
1001
0000
0010
0101
0000
0100
1100
0000
,
0110
0000
0010
1010
0000
1000
0011
0000
,
2000
0000
0000
0000
3020
0000
0001
0100
,
2030
0000
0001
0100
3002
0000
1000
0010
,
1003
0000
0010
1100
0000
0010
0101
0000
,
0101
0000
0010
1100
0000
0010
0110
0000
,
0011
0000
1000
1010
0000
0010
0110
0000
,
0020
0000
0000
0000
2030
0000
0100
0001
,
3200
0000
1000
0010
0302
0000
0010
1000
,
0013
0000
0100
0110
0000
0001
1100
0000
,
0101
0000
0010
1010
0000
1000
0011
0000
,
0110
0000
0001
1010
0000
0010
1100
0000
,
0002
0000
0000
0000
0203
0000
1000
0010
,
0302
0000
1000
0010
2003
0000
0001
0100
,
3001
0000
1000
1010
0000
0010
1100
0000
,
0011
0000
1000
0101
0000
0010
0110
0000
,
0110
0000
0001
1100
0000
0010
1001
0000
,
0010
0000
0000
0000
,
0020
0000
0000
0030
2001
0000
0100
3000
0000
0000
0001
0000
0011
0000
0000
0000
,
0101
0000
1000
0110
0000
1000
0011
0000
,
1100
0000
0001
0101
0000
1000
0110
0000
,
0020
0000
0000
0000
2030
0000
0100
0001
,
3200
0000
1000
0010
0302
0000
0010
1000
,
0013
0000
0100
0110
0000
0010
1100
0000
,
0101
0000
1000
0011
0000
0100
1010
0000
,
1010
0000
0000
0000
,
0200
1000
0001
0000
,
2301
0000
0000
3000
0020
0000
1230
0000
0300
0000
0002
0000
2013
0000
3000
0000
,
0020
0000
0001
0030
2000
0000
3210
0000
0300
0001
2000
0000
3012
0000
1003
0001
,
0200
0000
0000
0300
0002
0000
0213
0000
0300
0000
0020
0000
2031
0000
3000
0000
,
0200
0000
0000
0000
0320
0000
0001
0100
,
2030
0000
0001
0100
3002
0000
1000
0010
,
2003
0000
0000
3000
0020
0000
1230
0000
0300
0000
0002
0000
2013
0000
3000
0000
,
0020
0000
0100
0031
2000
0000
3210
0000
0300
0001
2000
0000
3012
0000
0103
0001
,
0200
0000
0000
0300
0002
0000
0213
0000
0300
0000
0020
0000
2031
0000
3000
0000
,
0020
0000
0000
0000
0230
0000
1000
0010
,
0302
0000
1000
0010
0203
0000
1000
0001
,
2301
0000
0000
3000
0020
0000
1230
0000
0300
0000
0002
0000
2013
0000
3000
0000
,
0020
0000
0100
0031
2000
0000
3210
0000
0300
0001
2000
0000
3012
0000
0103
0001
,
0200
0000
0000
0300
0002
0000
0213
0000
0300
0000
0020
0000
2031
0000
3000
0000
,
0200
0000
0000
0000
0320
0000
0001
0100
,
2030
0000
0001
0100
3002
0000
1000
0010
,
2003
0000
0000
3000
0020
0000
1230
0000
0300
0000
0002
0000
2013
0000
3000
0000
,
0020
0000
0100
0031
2000
0000
3210
0000
0300
0001
2000
0000
3012
0000
0103
0001
,
0200
0000
0000
0300
0002
0000
0213
0000
0300
0000
0020
0000
2031
0000
3000
0000
,
0200
0000
0000
0000
0320
0000
0001
0100
,
2030
0000
0001
0100
3002
0000
1000
0010
,
2003
3000
2000
3010
2000
3001
2000
3010
,
0110
0000
0000
0000
0000
0000
0000
0000
0000
0000
0000
0000
0010
0100
0010
0100
0000
0010
0010
0000
0000
0000
0000
0000
0000
0000
0000
0000
0000
0000
0000
0000
,
1101
0000
2000
3011
2000
3000
0012
0003
,
0010
0000
1000
1100
0000
0010
1001
0000
,
1001
0000
0010
1100
0000
0001
1100
0000
,
0110
0000
0000
0000
1001
0000
1000
0001
0001
0000
1000
1000
0010
0000
1000
0000
,
0011
0000
2000
3011
2000
3000
0012
0003
,
0010
0000
1000
1100
0000
0010
1001
0000
,
1001
0000
0010
1100
0000
0001
1100
0000
,
0110
0000
0000
0000
0011
0000
1000
0010
0100
0000
1000
0010
0010
0000
1000
0000
,
0011
0000
2000
3011
2000
3000
0012
0003
,
0010
0000
1000
1100
0000
0010
1001
0000
,
1001
0000
0010
1100
0000
0001
1100
0000
,
0110
0000
0000
0000
1001
0000
1000
0001
0001
0000
1000
1000
0010
0000
1000
0000
,
0011
0000
2000
3011
2000
3000
0012
0003
,
0010
0000
1000
1100
0000
0010
1001
0000
,
1001
0000
0010
1100
0000
0001
1100
0000
,
0220
0000
0000
0000
,
2331
0000
0000
3000
0020
0000
1230
0000
0300
0000
0002
0000
2013
0000
3000
0000
,
0020
0000
0100
0030
2000
0000
3210
0000
0300
0001
2000
0000
3012
0000
1003
0001
,
0200
0000
0000
0300
0002
0000
0213
0000
0300
0000
0020
0000
2031
0000
3000
0000
,
0200
0000
0000
0000
0320
0000
0001
0100
,
2030
0000
0001
0100
3002
0000
1000
0010
,
2003
0000
0000
3000
0020
0000
1230
0000
0300
0000
0002
0000
2013
0000
3000
0000
,
0020
0000
0100
0031
2000
0000
3210
0000
0300
0001
2000
0000
3012
0000
0103
0001
,
0200
0000
0000
0300
0002
0000
0213
0000
0300
0000
0020
0000
2031
0000
3000
0000
,
0020
0000
0000
0000
0230
0000
1000
0010
,
0302
0000
1000
0010
0203
0000
1000
0001
,
2301
0000
0000
3000
0020
0000
1230
0000
0300
0000
0002
0000
2013
0000
3000
0000
,
0020
0000
0100
0031
2000
0000
3210
0000
0300
0001
2000
0000
3012
0000
0103
0001
,
0200
0000
0000
0300
0002
0000
0213
0000
0300
0000
0020
0000
2031
0000
3000
0000
,
0200
0000
0000
0000
0320
0000
0001
0100
,
2030
0000
0001
0100
3002
0000
1000
0010
,
2003
0000
0000
3000
0020
0000
1230
0000
0300
0000
0002
0000
2013
0000
3000
0000
,
0020
0000
0100
0031
2000
0000
3210
0000
0300
0001
2000
0000
3012
0000
0103
0001
,
0200
0000
0000
0300
0002
0000
0213
0000
0300
0000
0020
0000
2031
0000
3000
0000
,
0001
0000
0100
0000
0000
0000
0010
0000
0000
0000
0020
0000
0000
0030
0000
0000
,
0000
0000
0000
0000
,
0000
0000
0000
0000
,
0000
0000
0000
0000
,
0000
0000
0000
0000
;
